<?xml version="1.0" standalone="no"?>
<!DOCTYPE svg PUBLIC "-//W3C//DTD SVG 1.1//EN" "http://www.w3.org/Graphics/SVG/1.1/DTD/svg11.dtd">
<svg xmlns="http://www.w3.org/2000/svg">
<metadata>Iconscout</metadata>
<defs>
<font id="unicons-10" horiz-adv-x="1000" >
<font-face font-family="unicons-10" font-weight="400" font-stretch="normal" units-per-em="1000" ascent="850" descent="-150" />
<missing-glyph horiz-adv-x="1000" />
<glyph glyph-name="previous" unicode="&#xea5b;" d="M559 350l137 137a42 42 0 1 1-59 59l-167-166a42 42 0 0 1 0-60l167-166a42 42 0 0 1 59 0 42 42 0 0 1 0 59z m-226 208a42 42 0 0 1-41-41v-334a42 42 0 0 1 83 0v334a42 42 0 0 1-42 41z" horiz-adv-x="1000" />

<glyph glyph-name="film" unicode="&#xea5c;" d="M875 767a42 42 0 0 1-42-42v-83h-83v83a42 42 0 0 1-83 0v-42h-334v42a42 42 0 0 1-83 0v-83h-83v83a42 42 0 0 1-84 0v-750a42 42 0 0 1 84 0v83h83v-83a42 42 0 0 1 83 0v42h334v-42a42 42 0 0 1 83 0v83h83v-83a42 42 0 0 1 84 0v750a42 42 0 0 1-42 42z m-625-625h-83v83h83z m0 166h-83v84h83z m0 167h-83v83h83z m417-375h-334v208h334z m0 292h-334v208h334z m166-250h-83v83h83z m0 166h-83v84h83z m0 167h-83v83h83z" horiz-adv-x="1000" />

<glyph glyph-name="image-broken" unicode="&#xea5d;" d="M905 244l-105 106a42 42 0 0 1-59 0l-116-118-116 118a42 42 0 0 1-59 0l-96-97-95 97a42 42 0 0 1-59 0l-105-104a42 42 0 0 1-8-14 42 42 0 0 1-4-16v-158a125 125 0 0 1 125-125h584a125 125 0 0 1 125 125v157a42 42 0 0 1-4 15 42 42 0 0 1-8 14z m-72-186a42 42 0 0 0-41-41h-584a42 42 0 0 0-41 41v140l62 62 96-96a42 42 0 0 1 59 0l95 96 116-118a42 42 0 0 1 60 0l116 116 62-62z m-41 709h-584a125 125 0 0 1-125-125v-219a49 49 0 0 1 0-12s0-3 0-4a42 42 0 0 1 70-13l76 74 96-95a42 42 0 0 1 59 0l95 95 116-118a42 42 0 0 1 60 0l116 117 74-74a42 42 0 0 1 69 12 12 12 0 0 1 0 4 37 37 0 0 1 2 12v221a125 125 0 0 1-124 125z m41-244l-33 35a42 42 0 0 1-59 0l-116-118-116 118a42 42 0 0 1-59 0l-96-97-95 97a42 42 0 0 1-59 0l-33-35v119a42 42 0 0 0 41 41h584a42 42 0 0 0 41-41z" horiz-adv-x="1000" />

<glyph glyph-name="incoming-call" unicode="&#xea5e;" d="M648 475a45 45 0 0 1 16-3h167a42 42 0 0 1 0 83h-66l137 138a42 42 0 1 1-59 58l-137-136v66a42 42 0 1 1-83 0v-167a45 45 0 0 1 2-16 42 42 0 0 1 23-23z m162-167c-9 0-19 3-28 5a393 393 0 0 0-54 17 83 83 0 0 1-104-42l-9-19a507 507 0 0 0-111 84 507 507 0 0 0-83 110l17 12a83 83 0 0 1 42 103 430 430 0 0 0-16 55c-2 9-4 19-5 28a125 125 0 0 1-125 104h-125a125 125 0 0 1-125-142 792 792 0 0 1 688-686l16 0a125 125 0 0 1 83 32 125 125 0 0 1 42 94v125a125 125 0 0 1-103 120z m21-250a42 42 0 0 0-14-31 44 44 0 0 0-34-10 708 708 0 0 0-613 616 45 45 0 0 0 10 34 42 42 0 0 0 31 14h125a42 42 0 0 0 42-33q2-17 6-34a463 463 0 0 1 19-64l-58-27a42 42 0 0 1-20-56 604 604 0 0 1 291-292 42 42 0 0 1 32 0 42 42 0 0 1 24 22l26 58a570 570 0 0 1 65-19q17-3 34-6a42 42 0 0 0 33-42z" horiz-adv-x="1000" />

<glyph glyph-name="image-check" unicode="&#xea5f;" d="M905 754a42 42 0 0 1-59 0l-141-137-51 50a42 42 0 0 1-58-60l80-78a42 42 0 0 1 58 0l170 166a42 42 0 0 1 1 59z m-113-279a42 42 0 0 1-42-42v-183l-62 62a115 115 0 0 1-163 0l-30-29-103 104a116 116 0 0 1-164 0l-61-62v233a42 42 0 0 0 41 42h250a42 42 0 0 1 0 83h-250a125 125 0 0 1-125-125v-500a125 125 0 0 1 125-125h500a125 125 0 0 1 125 125v375a42 42 0 0 1-41 42z m-584-458a42 42 0 0 0-41 41v149l121 121a33 33 0 0 0 45 0l132-132 0 0 179-179z m542 41a37 37 0 0 0-7-22l-188 189 29 29a33 33 0 0 0 46 0l120-121z" horiz-adv-x="1000" />

<glyph glyph-name="image-plus" unicode="&#xea60;" d="M792 433a42 42 0 0 1-42-41v-141l-62 62a116 116 0 0 1-163 0l-30-30-103 104a116 116 0 0 1-164 0l-61-62v233a42 42 0 0 0 41 42h334a42 42 0 0 1 0 83h-334a125 125 0 0 1-125-125v-509a116 116 0 0 1 116-116h518a120 120 0 0 1 34 5h0a114 114 0 0 1 83 111v343a42 42 0 0 1-42 41z m-584-416a42 42 0 0 0-41 41v149l120 121a33 33 0 0 0 46 0l311-311z m542 41a42 42 0 0 0-7-22l-189 189 30 29a32 32 0 0 0 46 0l120-121z m125 625h-42v42a42 42 0 0 1-83 0v-42h-42a42 42 0 0 1 0-83h42v-42a42 42 0 0 1 83 0v42h42a42 42 0 0 1 0 83z" horiz-adv-x="1000" />

<glyph glyph-name="video" unicode="&#xea61;" d="M897 552a42 42 0 0 1-42 0l-147-72a125 125 0 0 1-125 120h-375a125 125 0 0 1-125-125v-250a125 125 0 0 1 125-125h375a125 125 0 0 1 125 120l149-74a42 42 0 0 1 18-4 42 42 0 0 1 22 6 42 42 0 0 1 20 35v334a42 42 0 0 1-20 35z m-272-327a42 42 0 0 0-42-42h-375a42 42 0 0 0-41 42v250a42 42 0 0 0 41 42h375a42 42 0 0 0 42-42z m208 26l-125 62v74l125 62z" horiz-adv-x="1000" />

<glyph glyph-name="camera-plus" unicode="&#xea62;" d="M833 413a42 42 0 0 1-41-42v-292a42 42 0 0 0-42-41h-583a42 42 0 0 0-42 41v334a42 42 0 0 0 42 41h83a42 42 0 0 1 42 29l22 68a42 42 0 0 0 40 28h229a42 42 0 0 1 0 84h-231a125 125 0 0 1-119-86l-13-42h-53a125 125 0 0 1-125-125v-333a125 125 0 0 1 125-125h583a125 125 0 0 1 125 125v292a42 42 0 0 1-42 44z m-375 41a167 167 0 1 1 167-166 167 167 0 0 1-167 166z m0-250a83 83 0 1 0 84 84 83 83 0 0 0-84-84z m459 459h-42v41a42 42 0 0 1-83 0v-41h-42a42 42 0 0 1 0-84h42v-41a42 42 0 0 1 83 0v41h42a42 42 0 0 1 0 84z" horiz-adv-x="1000" />

<glyph glyph-name="play" unicode="&#xea63;" d="M772 475l-402 231a143 143 0 0 1-214-125v-463a143 143 0 0 1 143-143 143 143 0 0 1 71 19l402 231a143 143 0 0 1 0 247z m-41-175l-403-234a60 60 0 0 0-59 0 59 59 0 0 0-29 52v465a59 59 0 0 0 29 51 63 63 0 0 0 30 8 64 64 0 0 0 29-8l403-233a59 59 0 0 0 0-102z" horiz-adv-x="1000" />

<glyph glyph-name="cloud-question" unicode="&#xea64;" d="M768 508a292 292 0 0 1-557-79 167 167 0 0 1 39-329h83a42 42 0 0 1 0 83h-83a83 83 0 0 0 0 167 42 42 0 0 1 42 42 208 208 0 0 0 405 67 42 42 0 0 1 33-28 125 125 0 0 0 103-123 125 125 0 0 0-125-125 42 42 0 0 1 0-83 208 208 0 0 1 59 407z m-230-434a23 23 0 0 1-3 7l-5 7a48 48 0 0 1-14 9 42 42 0 0 1-46-9l-5-7a23 23 0 0 1-3-7 27 27 0 0 1-3-7 63 63 0 0 1 0-9 51 51 0 0 1 0-8 25 25 0 0 1 3-7 23 23 0 0 1 3-8l5-6a44 44 0 0 1 30-12 42 42 0 0 1 16 3 48 48 0 0 1 14 9l5 6a23 23 0 0 1 3 8 25 25 0 0 1 3 7 51 51 0 0 1 1 8 63 63 0 0 1 0 9 27 27 0 0 1-4 7z m-38 318a125 125 0 0 1-108-63 42 42 0 0 1 15-57 42 42 0 0 1 57 16 42 42 0 0 0 36 20 42 42 0 0 0 0-83 42 42 0 0 1 0-83 125 125 0 0 1 0 250z" horiz-adv-x="1000" />

<glyph glyph-name="skip-forward" unicode="&#xea65;" d="M792 725a125 125 0 0 1-125-125v-118l-375 223a134 134 0 0 1-137 0 141 141 0 0 1-72-122v-465a141 141 0 0 1 72-125 135 135 0 0 1 67-18 137 137 0 0 1 70 20l375 223v-118a125 125 0 0 1 250 0v500a125 125 0 0 1-125 125z m-154-426l-388-233a51 51 0 0 0-53 0 58 58 0 0 0-30 52v465a58 58 0 0 0 29 52 54 54 0 0 0 26 7 51 51 0 0 0 28-8l389-233a60 60 0 0 0 0-102z m195-199a42 42 0 0 0-83 0v500a42 42 0 0 0 83 0z" horiz-adv-x="1000" />

<glyph glyph-name="image-lock" unicode="&#xea66;" d="M833 634v49a125 125 0 0 1-250 0v-49a125 125 0 0 1-83-117v-84a125 125 0 0 1 125-125h167a125 125 0 0 1 125 125v84a125 125 0 0 1-84 117z m-166 49a42 42 0 0 0 83 0v-41h-83z m166-250a42 42 0 0 0-41-41h-167a42 42 0 0 0-42 41v84a42 42 0 0 0 42 41h167a42 42 0 0 0 41-41z m-41-208a42 42 0 0 1-42-42v-125a37 37 0 0 0-7-22l-351 351a119 119 0 0 1-164 0l-61-62v233a42 42 0 0 0 41 42h209a42 42 0 0 1 0 83h-209a125 125 0 0 1-125-125v-500a125 125 0 0 1 125-125h500a125 125 0 0 1 125 125v125a42 42 0 0 1-41 42z m-584-208a42 42 0 0 0-41 41v149l121 121a33 33 0 0 0 45 0l311-311z" horiz-adv-x="1000" />

<glyph glyph-name="skip-forward-circle" unicode="&#xea67;" d="M646 558a42 42 0 0 1-42-41v-71l-166 97a83 83 0 0 1-125-73v-240a83 83 0 0 1 41-72 83 83 0 0 1 84 0l166 96v-71a42 42 0 0 1 84 0v334a42 42 0 0 1-42 41z m-42-208l-208-120v240l208-120z m-104 417a417 417 0 1 1 417-417 417 417 0 0 1-417 417z m0-750a333 333 0 1 0 333 333 333 333 0 0 0-333-333z" horiz-adv-x="1000" />

<glyph glyph-name="skip-forward-alt" unicode="&#xea68;" d="M208 725a125 125 0 0 1-125-125v-500a125 125 0 0 1 250 0v500a125 125 0 0 1-125 125z m42-625a42 42 0 0 0-83 0v500a42 42 0 0 0 83 0z m612 348l-279 166a108 108 0 0 1-110 0 114 114 0 0 1-56-97v-334a114 114 0 0 1 57-99 107 107 0 0 1 110 0l278 167a115 115 0 0 1 0 196z m-42-125l-277-167a25 25 0 0 0-27 0 30 30 0 0 0-16 27v334a30 30 0 0 0 15 26 27 27 0 0 0 13 4 26 26 0 0 0 13-4l278-167a32 32 0 0 0 0-53z" horiz-adv-x="1000" />

<glyph glyph-name="step-backward-circle" unicode="&#xea69;" d="M646 543a83 83 0 0 1-84 0l-166-97v71a42 42 0 0 1-84 0v-334a42 42 0 0 1 84 0v71l166-96a83 83 0 0 1 84 0 83 83 0 0 1 41 72v240a83 83 0 0 1-41 73z m-42-313l-208 120h0l208 120z m-104 537a417 417 0 1 1 417-417 417 417 0 0 1-417 417z m0-750a333 333 0 1 0 333 333 333 333 0 0 0-333-333z" horiz-adv-x="1000" />

<glyph glyph-name="boombox" unicode="&#xea6a;" d="M708 767h-416a125 125 0 0 1-125-125v-584a125 125 0 0 1 125-125h416a125 125 0 0 1 125 125v584a125 125 0 0 1-125 125z m42-709a42 42 0 0 0-42-41h-416a42 42 0 0 0-42 41v584a42 42 0 0 0 42 41h416a42 42 0 0 0 42-41z m-151 342a125 125 0 0 1 26 75 125 125 0 0 1-250 0 125 125 0 0 1 26-75 167 167 0 1 1 198 0z m-99 117a42 42 0 1 0-42-42 42 42 0 0 0 42 42z m0-334a83 83 0 1 0 83 84 83 83 0 0 0-83-84z" horiz-adv-x="1000" />

<glyph glyph-name="step-backward-alt" unicode="&#xea6b;" d="M792 725a125 125 0 0 1-125-125v-500a125 125 0 0 1 250 0v500a125 125 0 0 1-125 125z m41-625a42 42 0 0 0-83 0v500a42 42 0 0 0 83 0z m-307 515a108 108 0 0 1-110 0l-278-166a115 115 0 0 1 0-196l278-167a107 107 0 0 1 110 0 114 114 0 0 1 57 97v334a114 114 0 0 1-57 98z m-26-432a30 30 0 0 0-15-26 25 25 0 0 0-26 0l-278 166a32 32 0 0 0 0 54l278 166a26 26 0 0 0 13 4 27 27 0 0 0 13-3 30 30 0 0 0 15-27z" horiz-adv-x="1000" />

<glyph glyph-name="image-share" unicode="&#xea6c;" d="M833 558a83 83 0 0 1-49-16l-73 33 81 37a83 83 0 0 1 41-12 83 83 0 1 1-83 83l-79-36a83 83 0 1 1-46-151 78 78 0 0 1 38 10l88-42a83 83 0 1 1 82 94z m-41-250a42 42 0 0 1-42-41v-17l-62 62a115 115 0 0 1-163 0l-30-29-103 104a116 116 0 0 1-164 0l-61-62v233a42 42 0 0 0 41 42h209a42 42 0 0 1 0 83h-209a125 125 0 0 1-125-125v-500a125 125 0 0 1 125-125h500a125 125 0 0 1 125 125v209a42 42 0 0 1-41 41z m-584-291a42 42 0 0 0-41 41v149l121 121a33 33 0 0 0 45 0l132-132 0 0 179-179z m542 41a37 37 0 0 0-7-22l-188 189 29 29a33 33 0 0 0 46 0l120-121z" horiz-adv-x="1000" />

<glyph glyph-name="cloud-database-tree" unicode="&#xea6d;" d="M938 246a83 83 0 0 1-84 83h-250a83 83 0 0 1-83-83h-125v125h97a153 153 0 0 1 49 297 208 208 0 0 1-393-53 125 125 0 0 1 39-244h125v-333a42 42 0 0 1 41-42h167a83 83 0 0 1 83-84h250a83 83 0 0 1 84 84v83a83 83 0 0 1-12 42 83 83 0 0 1 12 42z m-750 208a42 42 0 0 0 0 84 42 42 0 0 1 41 41 125 125 0 0 0 244 42 42 42 0 0 1 32-28 69 69 0 0 0 58-69 70 70 0 0 0-70-70z m333-375h-125v84h125a83 83 0 0 1 11-42 83 83 0 0 1-11-42z m83-83v83h250v-83z m0 167v83h250v-83z" horiz-adv-x="1000" />

<glyph glyph-name="snowflake" unicode="&#xea6e;" d="M882 178l-84 48 37 10a42 42 0 1 1-21 80l-118-31-113 65 113 65 118-31 11 0a42 42 0 0 1 10 83l-37 8 84 48a42 42 0 0 1-42 72l-90-52 13 46a42 42 0 1 1-81 22l-34-125-106-64v131l86 86a42 42 0 0 1 0 59 42 42 0 0 1-59 0l-27-28v97a42 42 0 0 1-84 0v-103l-33 34a42 42 0 0 1-60 0 42 42 0 0 1 0-59l93-93v-125l-107 63-34 125a42 42 0 1 1-80-21l13-45-90 52a42 42 0 0 1-42-73l84-47-35-11a42 42 0 0 1 11-83l10 0 118 32 111-63-113-65-118 31a42 42 0 1 1-19-80l37-10-84-48a42 42 0 0 1 42-73l88 52-12-46a42 42 0 0 1 28-53 48 48 0 0 1 11 0 42 42 0 0 1 42 31l34 125 105 64v-130l-86-87a42 42 0 0 1 0-58 42 42 0 0 1 30-13 42 42 0 0 1 29 13l27 27v-97a42 42 0 0 1 84 0v103l33-33a42 42 0 0 1 60 0 42 42 0 0 1 0 58l-93 93v125l107-62 34-125a42 42 0 0 1 42-31 48 48 0 0 1 10 0 42 42 0 0 1 30 52l-15 44 89-52a42 42 0 1 1 42 73z" horiz-adv-x="1000" />

<glyph glyph-name="temperature-quarter" unicode="&#xea6f;" d="M688 308v313a188 188 0 0 1-375 0v-313a250 250 0 0 1 133-409 292 292 0 0 1 54-7 250 250 0 0 1 188 416z m-84-294a167 167 0 0 0-221 250 42 42 0 0 1 12 29v328a104 104 0 0 0 208 0v-331a42 42 0 0 1 13-30 167 167 0 0 0-12-250z m-62 199v116a42 42 0 0 1-84 0v-116a83 83 0 0 1-41-71 83 83 0 0 1 166 0 83 83 0 0 1-41 71z" horiz-adv-x="1000" />

<glyph glyph-name="cloud-showers-heavy" unicode="&#xea70;" d="M537 98a42 42 0 0 1-53-25l-31-84a42 42 0 0 1 25-53 42 42 0 0 1 15-3 42 42 0 0 1 39 28l30 83a42 42 0 0 1-25 54z m-167 0a42 42 0 0 1-53-25l-30-84a42 42 0 0 1 25-53 42 42 0 0 1 14-3 42 42 0 0 1 39 28l30 83a42 42 0 0 1-25 54z m0 291a42 42 0 0 1-53-25l-46-125a42 42 0 0 1 39-56 42 42 0 0 1 40 28l45 125a42 42 0 0 1-25 53z m167 0a42 42 0 0 1-53-25l-46-125a42 42 0 0 1 39-56 42 42 0 0 1 39 28l46 125a42 42 0 0 1-25 53z m231 202a292 292 0 0 1-557-79 167 167 0 0 1-128-162 167 167 0 0 1 56-125 42 42 0 1 1 55 63 83 83 0 0 0-27 62 83 83 0 0 0 83 83 42 42 0 0 1 42 42 208 208 0 0 0 405 67 42 42 0 0 1 33-28 125 125 0 0 0 103-122 121 121 0 0 0-31-84 42 42 0 0 1 62-55 208 208 0 0 1-97 336z m-64-493a42 42 0 0 1-54-25l-30-84a42 42 0 0 1 25-53 42 42 0 0 1 14-3 42 42 0 0 1 39 28l31 83a42 42 0 0 1-25 54z m0 291a42 42 0 0 1-54-25l-45-125a42 42 0 0 1 39-56 42 42 0 0 1 39 28l46 125a42 42 0 0 1-25 53z" horiz-adv-x="1000" />

<glyph glyph-name="fahrenheit" unicode="&#xea71;" d="M854 725h-291a125 125 0 0 1-125-125v-583a42 42 0 0 1 83 0v291h250a42 42 0 0 1 0 84h-250v208a42 42 0 0 0 42 42h291a42 42 0 0 1 0 83z m-625 0a125 125 0 1 1 125-125 125 125 0 0 1-125 125z m0-167a42 42 0 1 0 42 42 42 42 0 0 0-42-42z" horiz-adv-x="1000" />

<glyph glyph-name="snowflake-alt" unicode="&#xea72;" d="M205 114a42 42 0 1 1 59 0 42 42 0 0 1-59 0z m590 472a42 42 0 1 1-59 0 42 42 0 0 1 59 0z m-531 0a42 42 0 1 1-59 0 42 42 0 0 1 59 0z m472-472a42 42 0 1 1 59 0 42 42 0 0 1-59 0z m139 278h-66l54 53a42 42 0 0 1-59 60l-113-113h-91l96 95a42 42 0 1 1-59 59l-95-96v91l113 113a42 42 0 1 1-60 59l-53-54v66a42 42 0 0 1-84 0v-66l-53 54a42 42 0 0 1-60-59l113-113v-91l-95 96a42 42 0 1 1-59-59l96-95h-91l-113 113a42 42 0 0 1-59-60l54-53h-66a42 42 0 0 1 0-84h66l-54-53a42 42 0 0 1 0-60 42 42 0 0 1 59 0l113 113h91l-96-95a42 42 0 0 1 0-59 42 42 0 0 1 59 0l95 96v-91l-113-113a42 42 0 0 1 60-59l53 54v-66a42 42 0 0 1 84 0v66l53-54a42 42 0 0 1 60 0 42 42 0 0 1 0 59l-113 113v91l95-96a42 42 0 0 1 59 0 42 42 0 0 1 0 59l-96 95h91l113-113a42 42 0 0 1 59 0 42 42 0 0 1 0 60l-54 53h66a42 42 0 0 1 0 84z" horiz-adv-x="1000" />

<glyph glyph-name="cloud-wind" unicode="&#xea73;" d="M208 100a42 42 0 1 1 42-42 42 42 0 0 1-42 42z m584 167h-292a42 42 0 0 1 0-84h292a42 42 0 0 0 0-83 42 42 0 0 1 0-83 125 125 0 0 1 0 250z m-209 125a42 42 0 0 1 42-42h167a125 125 0 0 1 125 125 42 42 0 0 1-84 0 42 42 0 0 0-41-42h-167a42 42 0 0 1-42-41z m-166-167a42 42 0 0 1-42 42h-125a83 83 0 0 0 0 166 42 42 0 0 1 42 42 208 208 0 0 0 405 67 42 42 0 1 1 79 27 292 292 0 0 1-565-57 167 167 0 0 1 39-329h125a42 42 0 0 1 42 42z m0 167a42 42 0 1 1 41 41 42 42 0 0 1-41-41z m166-292h-208a42 42 0 0 1 0-83h208a42 42 0 0 0 42-42 42 42 0 0 1 83 0 125 125 0 0 1-125 125z" horiz-adv-x="1000" />

<glyph glyph-name="tornado" unicode="&#xea74;" d="M417-25h-84a42 42 0 0 1 0-83h84a42 42 0 0 1 0 83z m41 167h-208a42 42 0 0 1 0-84h208a42 42 0 0 1 0 84z m292 625a42 42 0 0 1-42 41h-583a42 42 0 0 1 0-83h583a42 42 0 0 1 42 42z m125-125h-625a42 42 0 0 1 0-84h625a42 42 0 0 1 0 84z m-83-167h-375a42 42 0 0 1 0-83h375a42 42 0 0 1 0 83z m-209-167h-250a42 42 0 0 1 0-83h250a42 42 0 0 1 0 83z" horiz-adv-x="1000" />

<glyph glyph-name="cloud-sun-hail" unicode="&#xea75;" d="M384 5a42 42 0 0 1-46 8 39 39 0 0 1-13-8 48 48 0 0 1-9-14 39 39 0 0 1 0-32 38 38 0 0 1 22-22 39 39 0 0 1 32 0 48 48 0 0 1 14 8 42 42 0 0 1 12 30 35 35 0 0 1-3 16 48 48 0 0 1-9 14z m166 83a39 39 0 0 1-13 9 42 42 0 0 1-46-9 48 48 0 0 1-9-14 42 42 0 0 1 55-54 48 48 0 0 1 13 9 42 42 0 0 1 9 45 48 48 0 0 1-9 14z m-166 83a42 42 0 0 1-46 9 42 42 0 0 1-13-9 48 48 0 0 1-9-13 42 42 0 0 1 9-46 48 48 0 0 1 13-9 39 39 0 0 1 32 0 48 48 0 0 1 14 9 42 42 0 0 1 12 30 35 35 0 0 1-3 16 48 48 0 0 1-9 13z m121 92a42 42 0 0 1-14-8 44 44 0 0 1-12-30 42 42 0 0 1 12-30 48 48 0 0 1 14-8 35 35 0 0 1 16-4 42 42 0 0 1 42 42 44 44 0 0 1-13 30 42 42 0 0 1-45 8z m370 295h-33a177 177 0 0 1-22 53l23 24a42 42 0 0 1-58 58l-24-23a177 177 0 0 1-53 22v33a42 42 0 0 1-83 0v-33a171 171 0 0 1-53-22l-23 23a42 42 0 0 1-59-58l23-24c-3-6-6-13-10-20a244 244 0 0 1-65 9 250 250 0 0 1-248-214 146 146 0 0 1-19-274 47 47 0 0 1 17-3 42 42 0 0 1 16 80 62 62 0 0 0-37 57 63 63 0 0 0 62 62 42 42 0 0 1 42 42 167 167 0 0 0 324 54 42 42 0 0 1 33-28 97 97 0 0 0 39-176 42 42 0 0 1 46-70 181 181 0 0 1 79 150 175 175 0 0 1-13 65l6-5a42 42 0 0 1 29-12 42 42 0 0 1 29 12 42 42 0 0 1 0 59l-23 23a177 177 0 0 1 22 53h33a42 42 0 0 1 0 83z m-139-110h0a87 87 0 0 0-25-18 174 174 0 0 1-44 23 255 255 0 0 1-87 103 101 101 0 0 0 19 29h0a101 101 0 0 0 137 0h0a99 99 0 0 0 0-137z" horiz-adv-x="1000" />

<glyph glyph-name="cloud" unicode="&#xea76;" d="M768 466a292 292 0 0 1-557-79 167 167 0 0 1 39-329h458a208 208 0 0 1 59 408z m-60-324h-458a83 83 0 0 0 0 166 42 42 0 0 1 42 42 208 208 0 0 0 405 67 42 42 0 0 1 33-27 125 125 0 0 0-22-248z" horiz-adv-x="1000" />

<glyph glyph-name="image-edit" unicode="&#xea77;" d="M906 694l-101 101a42 42 0 0 1-59 0l-191-191a42 42 0 0 1-12-30v-101a42 42 0 0 1 42-41h100a42 42 0 0 1 30 12l191 191a42 42 0 0 1 0 59z m-238-179h-42v42l149 149 42-42z m124-123a42 42 0 0 1-42-42v-100l-62 62a116 116 0 0 1-163 0l-29-29-104 104a116 116 0 0 1-164 0l-61-62v233a42 42 0 0 0 41 42h250a42 42 0 0 1 0 83h-250a125 125 0 0 1-125-125v-500a125 125 0 0 1 125-125h500a125 125 0 0 1 125 125v292a42 42 0 0 1-41 42z m-584-375a42 42 0 0 0-41 41v149l120 121a33 33 0 0 0 46 0l132-132c0-1 1-1 1-2l178-177z m542 41a40 40 0 0 0-7-22l-189 188 30 29a32 32 0 0 0 45 0l121-120z" horiz-adv-x="1000" />

<glyph glyph-name="cloud-moon-hail" unicode="&#xea78;" d="M384 171a42 42 0 0 1-14 9 42 42 0 0 1-45-9 48 48 0 0 1-9-13 35 35 0 0 1-3-16 42 42 0 0 1 57-39 48 48 0 0 1 14 9 42 42 0 0 1 9 46 48 48 0 0 1-9 13z m0-166a48 48 0 0 1-14 8 42 42 0 0 1-45-8 48 48 0 0 1-9-14 42 42 0 1 1 77 0 48 48 0 0 1-9 14z m160 255l-7 3-8 4a42 42 0 0 1-24-3 39 39 0 0 1-14-9 42 42 0 0 1-12-29 42 42 0 0 1 12-30 48 48 0 0 1 14-8 39 39 0 0 1 32 0 48 48 0 0 1 13 8 42 42 0 0 1 13 29 44 44 0 0 1-13 30z m6-172a42 42 0 0 1-45 9 38 38 0 0 1-23-23 42 42 0 0 1 9-45 48 48 0 0 1 14-9 39 39 0 0 1 32 0 48 48 0 0 1 13 9 42 42 0 0 1 9 45 48 48 0 0 1-9 14z m354 467a42 42 0 0 1-39 11 125 125 0 0 0-27-3 125 125 0 0 0-125 125 125 125 0 0 0 3 27 42 42 0 0 1-49 52 205 205 0 0 1-160-176 260 260 0 0 1-69 9 250 250 0 0 1-248-214 146 146 0 0 1-19-274 47 47 0 0 1 17-3 42 42 0 0 1 16 80 62 62 0 0 0-37 57 63 63 0 0 0 62 62 42 42 0 0 1 42 42 167 167 0 0 0 167 167 169 169 0 0 0 91-28h0a167 167 0 0 0 66-83 42 42 0 0 1 32-28 97 97 0 0 0 40-178 42 42 0 0 1 46-70 181 181 0 0 1 79 150 176 176 0 0 1-21 84 206 206 0 0 1 146 153 42 42 0 0 1-13 38z m-191-117a113 113 0 0 0-18 0 192 192 0 0 1-28 15 252 252 0 0 1-76 95c0 5 0 10 0 15a125 125 0 0 0 44 95 208 208 0 0 1 176-176 125 125 0 0 0-98-44z" horiz-adv-x="1000" />

<glyph glyph-name="temperature-empty" unicode="&#xea79;" d="M500 225a83 83 0 1 1 83-83 83 83 0 0 1-83 83z m188 83v313a188 188 0 0 1-375 0v-313a250 250 0 0 1 133-409 292 292 0 0 1 54-7 250 250 0 0 1 188 416z m-84-294a167 167 0 0 0-221 250 42 42 0 0 1 12 29v328a104 104 0 0 0 208 0v-331a42 42 0 0 1 13-30 167 167 0 0 0-12-250z" horiz-adv-x="1000" />

<glyph glyph-name="cloud-sun-rain" unicode="&#xea7a;" d="M313 225a42 42 0 0 1-42-42v-41a42 42 0 0 1 83 0v41a42 42 0 0 1-41 42z m604 333h-46a217 217 0 0 1-31 74l35 32a42 42 0 1 1-59 59l-32-33a208 208 0 0 1-76 31v46a42 42 0 0 1-83 0v-46a217 217 0 0 1-73-31l-32 33a42 42 0 0 1-60-59l33-32a211 211 0 0 1-32-84 240 240 0 0 1-65 10 250 250 0 0 1-248-213 146 146 0 0 1-19-275 47 47 0 0 1 17-3 42 42 0 0 1 16 80 62 62 0 0 0-37 57 63 63 0 0 0 63 63 42 42 0 0 1 41 41 167 167 0 0 0 324 54 42 42 0 0 1 33-28 97 97 0 0 0 39-176 42 42 0 0 1 46-70 181 181 0 0 1 79 151 184 184 0 0 1-19 80 215 215 0 0 1 51 24l32-33a42 42 0 0 1 61-2 42 42 0 0 1 0 60l-32 32a208 208 0 0 1 28 75h46a42 42 0 0 1 0 83z m-162-130a125 125 0 0 0-88-36h-3a172 172 0 0 1-41 19 247 247 0 0 1-84 99c0 3 0 4 0 7a125 125 0 0 0 36 88 129 129 0 0 0 178 0 125 125 0 0 0 0-177z m-442-411a42 42 0 0 1-42-42v-42a42 42 0 0 1 83 0v42a42 42 0 0 1-41 42z m166 41a42 42 0 0 1-42-41v-42a42 42 0 0 1 84 0v42a42 42 0 0 1-42 41z m0 209a42 42 0 0 1-42-42v-42a42 42 0 0 1 84 0v42a42 42 0 0 1-42 42z" horiz-adv-x="1000" />

<glyph glyph-name="thunderstorm" unicode="&#xea7b;" d="M563 225h-95l60 104a42 42 0 1 1-72 42l-96-167a42 42 0 0 1 0-41 42 42 0 0 1 36-21h94l-60-104a42 42 0 0 1 73-42l96 167a42 42 0 0 1 0 41 42 42 0 0 1-36 21z m205 325a292 292 0 0 1-557-80 167 167 0 0 1 39-328 42 42 0 0 1 0 83 83 83 0 0 0 0 167 42 42 0 0 1 42 41 208 208 0 0 0 405 67 42 42 0 0 1 33-27 125 125 0 0 0-22-248 42 42 0 0 1 0-83 208 208 0 0 1 59 408z" horiz-adv-x="1000" />

<glyph glyph-name="thunderstorm-sun" unicode="&#xea7c;" d="M483 163h-53l36 62a42 42 0 1 1-72 42l-72-125a42 42 0 0 1 35-63h53l-35-62a42 42 0 0 1 73-42l72 125a42 42 0 0 1 0 42 42 42 0 0 1-37 21z m392 375h-33a177 177 0 0 1-22 52l23 24a42 42 0 0 1-58 59l-24-24a177 177 0 0 1-53 22v33a42 42 0 0 1-83 0v-33a177 177 0 0 1-53-22l-23 24a42 42 0 0 1-59-59l23-24c-3-6-6-13-10-20a244 244 0 0 1-65 9 250 250 0 0 1-248-214 145 145 0 0 1-14-275 42 42 0 1 1 30 77 63 63 0 0 0 23 121 42 42 0 0 1 42 41 167 167 0 0 0 324 54 42 42 0 0 1 33-28 97 97 0 0 0 10-189 42 42 0 0 1 11-83 35 35 0 0 1 11 0 179 179 0 0 1 119 238l6-5a42 42 0 0 1 29-12 42 42 0 0 1 29 12 42 42 0 0 1 0 59l-23 23a177 177 0 0 1 22 56h33a42 42 0 0 1 0 84z m-139-111h0a95 95 0 0 0-25-17 174 174 0 0 1-44 23 255 255 0 0 1-87 104 101 101 0 0 0 19 29h0a101 101 0 0 0 137 0h0a99 99 0 0 0 0-137z" horiz-adv-x="1000" />

<glyph glyph-name="temperature-three-quarter" unicode="&#xea7d;" d="M542 213v283a42 42 0 0 1-84 0v-283a83 83 0 0 1-41-71 83 83 0 0 1 166 0 83 83 0 0 1-41 71z m146 95v313a188 188 0 0 1-375 0v-313a250 250 0 0 1 133-409 292 292 0 0 1 54-7 250 250 0 0 1 188 416z m-84-294a167 167 0 0 0-221 250 42 42 0 0 1 12 29v328a104 104 0 0 0 208 0v-331a42 42 0 0 1 13-30 167 167 0 0 0-12-250z" horiz-adv-x="1000" />

<glyph glyph-name="thunderstorm-moon" unicode="&#xea7e;" d="M483 163h-53l36 62a42 42 0 1 1-72 42l-72-125a42 42 0 0 1 35-63h53l-35-62a42 42 0 0 1 73-42l72 125a42 42 0 0 1 0 42 42 42 0 0 1-37 21z m421 372a42 42 0 0 1-39 10 133 133 0 0 0-27-3 125 125 0 0 0-125 125 125 125 0 0 0 3 27 42 42 0 0 1-49 51 205 205 0 0 1-160-176 260 260 0 0 1-69 10 250 250 0 0 1-248-214 145 145 0 0 1-14-275 42 42 0 1 1 30 77 63 63 0 0 0 23 121 42 42 0 0 1 42 41 167 167 0 0 0 167 167 163 163 0 0 0 90-28l0 0a167 167 0 0 0 66-83 42 42 0 0 1 32-28 97 97 0 0 0 11-189 42 42 0 0 1 11-83 35 35 0 0 1 11 0 180 180 0 0 1 133 175 176 176 0 0 1-21 83 206 206 0 0 1 146 153 42 42 0 0 1-13 39z m-191-118a109 109 0 0 0-18 0 192 192 0 0 1-28 16 250 250 0 0 1-76 95c0 5 0 11 0 16a125 125 0 0 0 44 95 208 208 0 0 1 176-176 125 125 0 0 0-98-46z" horiz-adv-x="1000" />

<glyph glyph-name="snow-flake" unicode="&#xea7f;" d="M875 392h-66l54 53a42 42 0 0 1-59 60l-113-113h-91l96 95a42 42 0 1 1-59 59l-95-96v91l113 113a42 42 0 1 1-60 59l-53-54v66a42 42 0 0 1-84 0v-66l-53 54a42 42 0 0 1-60-59l113-113v-91l-95 96a42 42 0 1 1-59-59l96-95h-91l-113 113a42 42 0 0 1-59-60l54-53h-66a42 42 0 0 1 0-84h66l-54-53a42 42 0 0 1 0-60 42 42 0 0 1 59 0l113 113h91l-96-95a42 42 0 0 1 0-59 42 42 0 0 1 59 0l95 96v-91l-113-113a42 42 0 0 1 60-59l53 54v-66a42 42 0 0 1 84 0v66l53-54a42 42 0 0 1 60 0 42 42 0 0 1 0 59l-113 113v91l95-96a42 42 0 0 1 59 0 42 42 0 0 1 0 59l-96 95h91l113-113a42 42 0 0 1 59 0 42 42 0 0 1 0 60l-54 53h66a42 42 0 0 1 0 84z" horiz-adv-x="1000" />

<glyph glyph-name="raindrops" unicode="&#xea80;" d="M438 517c0 145-138 239-144 243a42 42 0 0 1-46 0c-6-5-144-100-144-243a167 167 0 0 1 334 0z m-167-84a83 83 0 0 0-83 84 227 227 0 0 0 83 155 225 225 0 0 0 83-155 83 83 0 0 0-83-84z m481 327a42 42 0 0 1-46 0c-6-5-143-100-143-243a167 167 0 0 1 333 0c0 145-138 239-144 243z m-23-327a83 83 0 0 0-83 84 227 227 0 0 0 83 155 225 225 0 0 0 84-155 83 83 0 0 0-84-84z m-185-90a42 42 0 0 1-47 0c-5-4-143-99-143-243a167 167 0 0 1 334 0c0 145-138 239-144 243z m-23-326a83 83 0 0 0-84 83 227 227 0 0 0 84 155 225 225 0 0 0 83-155 83 83 0 0 0-83-83z" horiz-adv-x="1000" />

<glyph glyph-name="forecastcloud-moon-tear" unicode="&#xea81;" d="M904 535a42 42 0 0 1-39 10 133 133 0 0 0-27-3 125 125 0 0 0-125 125 125 125 0 0 0 3 27 42 42 0 0 1-49 51 205 205 0 0 1-160-176 260 260 0 0 1-69 10 250 250 0 0 1-248-214 146 146 0 0 1-19-274 47 47 0 0 1 17-3 42 42 0 0 1 16 80 62 62 0 0 0-37 57 63 63 0 0 0 62 63 42 42 0 0 1 42 41 167 167 0 0 0 167 167 163 163 0 0 0 90-28h0a167 167 0 0 0 66-83 42 42 0 0 1 32-28 97 97 0 0 0 41-178 42 42 0 0 1 46-70 180 180 0 0 1 79 151 176 176 0 0 1-21 83 206 206 0 0 1 146 153 42 42 0 0 1-13 39z m-191-118a109 109 0 0 0-18 0 192 192 0 0 1-28 16 250 250 0 0 1-76 95c0 5 0 11 0 16a125 125 0 0 0 44 95 208 208 0 0 1 176-176 125 125 0 0 0-98-46z m-250-164a42 42 0 0 1-47 0c-6-3-103-70-103-174a125 125 0 0 1 250 0c0 104-98 171-102 174z m-25-215a42 42 0 0 0-42 41 125 125 0 0 0 42 84 125 125 0 0 0 41-84 42 42 0 0 0-41-41z" horiz-adv-x="1000" />

<glyph glyph-name="cloud-rain" unicode="&#xea82;" d="M523 322a42 42 0 0 1-46 0c-5-3-112-77-112-191a135 135 0 0 1 270 0c0 115-107 188-112 191z m-23-243a52 52 0 0 0-52 52 153 153 0 0 0 52 102 150 150 0 0 0 52-102 52 52 0 0 0-52-52z m268 449a292 292 0 0 1-557-78 167 167 0 0 1 25-328h4a42 42 0 0 1 41 38 42 42 0 0 1-38 45 83 83 0 0 0-76 83 83 83 0 0 0 83 83 42 42 0 0 1 42 42 208 208 0 0 0 405 67 42 42 0 0 1 33-28 125 125 0 0 0 18-242 42 42 0 0 1 25-79 208 208 0 0 1-5 397z" horiz-adv-x="1000" />

<glyph glyph-name="cloud-sun-tear" unicode="&#xea83;" d="M460 253a42 42 0 0 1-46 0c-4-3-101-70-101-174a125 125 0 0 1 250 0c0 104-98 171-103 174z m-22-215a42 42 0 0 0-42 41 125 125 0 0 0 42 84 125 125 0 0 0 41-84 42 42 0 0 0-41-41z m437 500h-33a177 177 0 0 1-22 52l23 24a42 42 0 0 1-58 59l-24-24a177 177 0 0 1-53 22v33a42 42 0 0 1-83 0v-33a171 171 0 0 1-53-22l-23 24a42 42 0 0 1-59-59l23-24c-3-6-6-13-10-20a244 244 0 0 1-65 9 250 250 0 0 1-248-214 146 146 0 0 1-19-274 47 47 0 0 1 17-3 42 42 0 0 1 16 80 62 62 0 0 0-37 57 63 63 0 0 0 62 63 42 42 0 0 1 42 41 167 167 0 0 0 324 54 42 42 0 0 1 33-28 97 97 0 0 0 39-176 42 42 0 0 1 46-70 179 179 0 0 1 68 216l6-6a42 42 0 0 1 29-12 42 42 0 0 1 29 12 42 42 0 0 1 0 59l-23 23a177 177 0 0 1 20 53h33a42 42 0 0 1 0 84z m-139-111h0a102 102 0 0 0-25-17 174 174 0 0 1-44 23 255 255 0 0 1-87 104 94 94 0 0 0 19 29h0a101 101 0 0 0 137 0h0a99 99 0 0 0 0-138z" horiz-adv-x="1000" />

<glyph glyph-name="cloud-moon-showers" unicode="&#xea84;" d="M354 267a42 42 0 0 1-42-42v-250a42 42 0 0 1 84 0v250a42 42 0 0 1-42 42z m167 41a42 42 0 0 1-42-41v-250a42 42 0 0 1 83 0v250a42 42 0 0 1-41 41z m383 247a42 42 0 0 1-39 11 125 125 0 0 0-27-3 125 125 0 0 0-125 125 130 130 0 0 0 3 27 42 42 0 0 1-11 39 42 42 0 0 1-38 13 205 205 0 0 1-160-176 260 260 0 0 1-69 9 250 250 0 0 1-248-214 146 146 0 0 1-19-274 47 47 0 0 1 17-3 42 42 0 0 1 16 80 62 62 0 0 0-37 57 63 63 0 0 0 62 62 42 42 0 0 1 42 42 167 167 0 0 0 167 167 163 163 0 0 0 90-28l0 0a164 164 0 0 0 65-83 42 42 0 0 1 33-28 97 97 0 0 0 41-178 42 42 0 0 1 46-70 180 180 0 0 1 79 150 176 176 0 0 1-21 84 206 206 0 0 1 146 153 42 42 0 0 1-13 38z m-191-117a113 113 0 0 0-18 0 192 192 0 0 1-28 15 252 252 0 0 1-76 95c0 5 0 10 0 15a125 125 0 0 0 44 95 208 208 0 0 1 176-176 125 125 0 0 0-98-44z" horiz-adv-x="1000" />

<glyph glyph-name="cloud-rain-sun" unicode="&#xea85;" d="M875 558h-33a177 177 0 0 1-22 53l23 24a42 42 0 0 1-58 58l-24-23a177 177 0 0 1-53 22v33a42 42 0 0 1-83 0v-33a171 171 0 0 1-53-22l-23 23a42 42 0 0 1-59-58l23-24c-3-6-6-13-10-20a244 244 0 0 1-65 9 250 250 0 0 1-248-214 146 146 0 0 1-19-274 47 47 0 0 1 17-3 42 42 0 0 1 16 80 62 62 0 0 0-37 57 63 63 0 0 0 62 62 42 42 0 0 1 42 42 167 167 0 0 0 324 54 42 42 0 0 1 33-28 97 97 0 0 0 39-176 42 42 0 0 1 46-70 181 181 0 0 1 79 150 175 175 0 0 1-13 65l6-5a42 42 0 0 1 29-12 42 42 0 0 1 29 12 42 42 0 0 1 0 59l-23 23a177 177 0 0 1 22 53h33a42 42 0 0 1 0 83z m-139-110h0a87 87 0 0 0-25-18 174 174 0 0 1-44 23 255 255 0 0 1-87 103 101 101 0 0 0 19 29h0a101 101 0 0 0 137 0h0a99 99 0 0 0 0-137z m-382-181a42 42 0 0 1-42-42v-250a42 42 0 0 1 84 0v250a42 42 0 0 1-42 42z m167 41a42 42 0 0 1-42-41v-250a42 42 0 0 1 83 0v250a42 42 0 0 1-41 41z" horiz-adv-x="1000" />

<glyph glyph-name="cloud-showers-alt" unicode="&#xea86;" d="M333 308a42 42 0 0 1-41-41v-209a42 42 0 0 1 83 0v209a42 42 0 0 1-42 41z m167 84a42 42 0 0 1-42-42v-375a42 42 0 0 1 84 0v375a42 42 0 0 1-42 42z m268 199a292 292 0 0 1-557-79 167 167 0 0 1-128-162 167 167 0 0 1 56-125 42 42 0 1 1 55 63 83 83 0 0 0-27 62 83 83 0 0 0 83 83 42 42 0 0 1 42 42 208 208 0 0 0 405 67 42 42 0 0 1 33-28 125 125 0 0 0 103-122 121 121 0 0 0-31-84 42 42 0 0 1 62-55 208 208 0 0 1-97 336z m-101-283a42 42 0 0 1-42-41v-209a42 42 0 0 1 83 0v209a42 42 0 0 1-41 41z" horiz-adv-x="1000" />

<glyph glyph-name="cloud-showers" unicode="&#xea87;" d="M333 392a42 42 0 0 1-41-42v-125a42 42 0 0 1 83 0v125a42 42 0 0 1-42 42z m167-250a42 42 0 0 1-42-42v-125a42 42 0 0 1 84 0v125a42 42 0 0 1-42 42z m-167 0a42 42 0 0 1-41-42v-125a42 42 0 0 1 83 0v125a42 42 0 0 1-42 42z m435 449a292 292 0 0 1-557-79 167 167 0 0 1-128-162 167 167 0 0 1 56-125 42 42 0 1 1 55 63 83 83 0 0 0-27 62 83 83 0 0 0 83 83 42 42 0 0 1 42 42 208 208 0 0 0 405 67 42 42 0 0 1 33-28 125 125 0 0 0 103-122 121 121 0 0 0-31-84 42 42 0 0 1 62-55 208 208 0 0 1-97 336z m-268-199a42 42 0 0 1-42-42v-125a42 42 0 0 1 84 0v125a42 42 0 0 1-42 42z m167 0a42 42 0 0 1-42-42v-125a42 42 0 0 1 83 0v125a42 42 0 0 1-41 42z m0-250a42 42 0 0 1-42-42v-125a42 42 0 0 1 83 0v125a42 42 0 0 1-41 42z" horiz-adv-x="1000" />

<glyph glyph-name="cloud-hail" unicode="&#xea88;" d="M500 142a42 42 0 1 1 42-42 42 42 0 0 1-42 42z m-167 250a42 42 0 1 1 42-42 42 42 0 0 1-42 42z m167-84a42 42 0 1 1 42-41 42 42 0 0 1-42 41z m-167-250a42 42 0 1 1 42-41 42 42 0 0 1-42 41z m0 167a42 42 0 1 1 42-42 42 42 0 0 1-42 42z m334 0a42 42 0 1 1 41-42 42 42 0 0 1-41 42z m-167 250a42 42 0 1 1 42-42 42 42 0 0 1-42 42z m167-83a42 42 0 1 1 41-42 42 42 0 0 1-41 42z m101 199a292 292 0 0 1-557-79 167 167 0 0 1-128-162 167 167 0 0 1 56-125 42 42 0 1 1 55 63 83 83 0 0 0-27 62 83 83 0 0 0 83 83 42 42 0 0 1 42 42 208 208 0 0 0 405 67 42 42 0 0 1 33-28 125 125 0 0 0 103-122 121 121 0 0 0-31-84 42 42 0 0 1 62-55 208 208 0 0 1-97 336z m-101-533a42 42 0 1 1 41-41 42 42 0 0 1-41 41z" horiz-adv-x="1000" />

<glyph glyph-name="cloud-drizzle" unicode="&#xea89;" d="M500 58a42 42 0 0 1-42-41v-42a42 42 0 0 1 84 0v42a42 42 0 0 1-42 41z m-167 334a42 42 0 0 1-41-42v-42a42 42 0 0 1 83 0v42a42 42 0 0 1-42 42z m0-209a42 42 0 0 1-41-41v-42a42 42 0 0 1 83 0v42a42 42 0 0 1-42 41z m167 84a42 42 0 0 1-42-42v-42a42 42 0 0 1 84 0v42a42 42 0 0 1-42 42z m268 324a292 292 0 0 1-557-79 167 167 0 0 1-128-162 167 167 0 0 1 56-125 42 42 0 1 1 55 63 83 83 0 0 0-27 62 83 83 0 0 0 83 83 42 42 0 0 1 42 42 208 208 0 0 0 405 67 42 42 0 0 1 33-28 125 125 0 0 0 103-122 121 121 0 0 0-31-84 42 42 0 0 1 62-55 208 208 0 0 1-97 336z m-101-199a42 42 0 0 1-42-42v-42a42 42 0 0 1 83 0v42a42 42 0 0 1-41 42z m0-209a42 42 0 0 1-42-41v-42a42 42 0 0 1 83 0v42a42 42 0 0 1-41 41z m-167 292a42 42 0 0 1-42-42v-41a42 42 0 0 1 84 0v41a42 42 0 0 1-42 42z" horiz-adv-x="1000" />

<glyph glyph-name="cloud-moon" unicode="&#xea8a;" d="M904 472a42 42 0 0 1-39 11 130 130 0 0 0-27-3 125 125 0 0 0-125 125 130 130 0 0 0 3 27 42 42 0 0 1-11 39 42 42 0 0 1-38 12 205 205 0 0 1-160-175 260 260 0 0 1-69 9 250 250 0 0 1-248-214 146 146 0 0 1 39-286h382a180 180 0 0 1 181 180 176 176 0 0 1-21 83 206 206 0 0 1 146 153 42 42 0 0 1-13 39z m-291-372h-384a63 63 0 0 0 0 125 42 42 0 0 1 42 42 167 167 0 0 0 257 139l0 0a164 164 0 0 0 66-84 42 42 0 0 1 32-27 97 97 0 0 0-15-195z m101 255a109 109 0 0 0-17 0 192 192 0 0 1-30 13 252 252 0 0 1-76 95c0 5 0 10 0 15a125 125 0 0 0 44 95 208 208 0 0 1 176-176 125 125 0 0 0-98-42z" horiz-adv-x="1000" />

<glyph glyph-name="moon" unicode="&#xea8b;" d="M902 308a42 42 0 0 1-44 6 335 335 0 0 0-140-30 340 340 0 0 0-340 337 358 358 0 0 0 11 84 42 42 0 0 1-56 47 423 423 0 1 1 584-487 42 42 0 0 1-15 43z m-396-278a339 339 0 0 0-211 603v-12a423 423 0 0 1 422-422 408 408 0 0 1 88 9 338 338 0 0 0-299-180z" horiz-adv-x="1000" />

<glyph glyph-name="cloud-moon-rain" unicode="&#xea8c;" d="M354 267a42 42 0 0 1-42-42v-42a42 42 0 0 1 84 0v42a42 42 0 0 1-42 42z m0-209a42 42 0 0 1-42-41v-42a42 42 0 0 1 84 0v42a42 42 0 0 1-42 41z m550 497a42 42 0 0 1-39 11 125 125 0 0 0-27-3 125 125 0 0 0-125 125 130 130 0 0 0 3 27 42 42 0 0 1-11 39 42 42 0 0 1-38 13 205 205 0 0 1-160-176 260 260 0 0 1-69 9 250 250 0 0 1-248-214 146 146 0 0 1-19-274 47 47 0 0 1 17-3 42 42 0 0 1 16 80 62 62 0 0 0-37 57 63 63 0 0 0 62 62 42 42 0 0 1 42 42 167 167 0 0 0 167 167 163 163 0 0 0 90-28l0 0a164 164 0 0 0 65-83 42 42 0 0 1 33-28 97 97 0 0 0 41-178 42 42 0 0 1 46-70 180 180 0 0 1 79 150 176 176 0 0 1-21 84 206 206 0 0 1 146 153 42 42 0 0 1-13 38z m-191-117a113 113 0 0 0-18 0 192 192 0 0 1-28 15 252 252 0 0 1-76 95c0 5 0 10 0 15a125 125 0 0 0 44 95 208 208 0 0 1 176-176 125 125 0 0 0-98-44z m-192-130a42 42 0 0 1-42-41v-42a42 42 0 0 1 83 0v42a42 42 0 0 1-41 41z m0-208a42 42 0 0 1-42-42v-41a42 42 0 0 1 83 0v41a42 42 0 0 1-41 42z" horiz-adv-x="1000" />

<glyph glyph-name="moonset" unicode="&#xea8d;" d="M458 58h-125a42 42 0 0 1 0-83h125a42 42 0 0 1 0 83z m375 167h-48a341 341 0 0 1 48 123 42 42 0 0 1-14 39 42 42 0 0 1-41 8 250 250 0 0 0-80-14 252 252 0 0 0-253 250 289 289 0 0 0 4 42 42 42 0 0 1-14 38 42 42 0 0 1-42 8 336 336 0 0 1-226-314 333 333 0 0 1 53-180h-53a42 42 0 0 1 0-83h666a42 42 0 0 1 0 83z m-155 0h-352a250 250 0 0 0 37 390 336 336 0 0 1 335-317 292 292 0 0 1 33 0 253 253 0 0 0-53-73z m-11-167h-42a42 42 0 0 1 0-83h42a42 42 0 0 1 0 83z" horiz-adv-x="1000" />

<glyph glyph-name="celsius" unicode="&#xea8e;" d="M875 58h-250a125 125 0 0 0-125 125v334a125 125 0 0 0 125 125h250a42 42 0 0 1 0 83h-250a208 208 0 0 1-208-208v-334a208 208 0 0 1 208-208h250a42 42 0 0 1 0 83z m-667 667a125 125 0 1 1 125-125 125 125 0 0 1-125 125z m0-167a42 42 0 1 0 42 42 42 42 0 0 0-42-42z" horiz-adv-x="1000" />

<glyph glyph-name="image-upload" unicode="&#xea8f;" d="M792 308a42 42 0 0 1-42-41v-16l-62 62a116 116 0 0 1-163 0l-30-30-103 104a119 119 0 0 1-164 0l-61-62v233a42 42 0 0 0 41 42h292a42 42 0 0 1 0 83h-292a125 125 0 0 1-125-125v-500a125 125 0 0 1 125-125h500a125 125 0 0 1 125 125v209a42 42 0 0 1-41 41z m-584-291a42 42 0 0 0-41 41v149l121 121a33 33 0 0 0 45 0l132-132 0 0 179-179z m542 41a37 37 0 0 0-7-22l-188 189 29 29a32 32 0 0 0 46 0l120-121z m196 613l-125 125a42 42 0 0 1-13 9 42 42 0 0 1-32 0 42 42 0 0 1-14-9l-125-125a42 42 0 0 1 59-59l54 54v-233a42 42 0 0 1 83 0v233l54-54a42 42 0 0 1 59 0 42 42 0 0 1 0 59z" horiz-adv-x="1000" />

<glyph glyph-name="cloud-sun-meatball" unicode="&#xea90;" d="M521 145h-32l16 28a42 42 0 0 1-73 42l-15-28-16 28a42 42 0 0 1-73-42l17-28h-32a42 42 0 0 1 0-83h32l-17-28a42 42 0 0 1 73-42l16 28 15-28a42 42 0 1 1 73 42l-16 28h32a42 42 0 0 1 0 83z m354 375h-33a177 177 0 0 1-22 53l23 23a42 42 0 0 1-58 59l-24-23a177 177 0 0 1-53 21v34a42 42 0 0 1-83 0v-34a171 171 0 0 1-53-21l-23 23a42 42 0 0 1-59-59l23-23c-3-7-6-14-10-20a244 244 0 0 1-66 9 250 250 0 0 1-247-212 147 147 0 0 1-107-142 145 145 0 0 1 59-117 42 42 0 1 1 49 67 61 61 0 0 0-24 50 63 63 0 0 0 62 62 42 42 0 0 1 42 42 167 167 0 0 0 324 53 42 42 0 0 1 33-27 97 97 0 0 0 22-185 42 42 0 0 1-22-55 42 42 0 0 1 39-25 39 39 0 0 1 16 4 180 180 0 0 1 109 166 179 179 0 0 1-13 65l6-5a42 42 0 0 1 29-12 42 42 0 0 1 29 12 42 42 0 0 1 0 59l-23 23a175 175 0 0 1 22 53h33a42 42 0 0 1 0 83z m-139-110h0a79 79 0 0 0-25-17 173 173 0 0 1-44 21 250 250 0 0 1-89 103 91 91 0 0 0 20 29h0a101 101 0 0 0 137 0h0a97 97 0 0 0 0-137z" horiz-adv-x="1000" />

<glyph glyph-name="windsock" unicode="&#xea91;" d="M753 642l-336 28h0l-125 10v45a42 42 0 0 1-84 0v-750a42 42 0 0 1 84 0v295l125 10h0l336 28a42 42 0 0 1 39 42v250a42 42 0 0 1-39 42z m-378-282l-83-6v242l83-6z m167 15l-84-7v215l84-8z m166 13l-83-7v188l83-7z" horiz-adv-x="1000" />

<glyph glyph-name="stop-circle" unicode="&#xea92;" d="M625 517h-250a42 42 0 0 1-42-42v-250a42 42 0 0 1 42-42h250a42 42 0 0 1 42 42v250a42 42 0 0 1-42 42z m-42-250h-166v166h166z m-83 500a417 417 0 1 1 417-417 417 417 0 0 1-417 417z m0-750a333 333 0 1 0 333 333 333 333 0 0 0-333-333z" horiz-adv-x="1000" />

<glyph glyph-name="temperature-plus" unicode="&#xea93;" d="M438 213v408a42 42 0 0 1-84 0v-408a83 83 0 0 1-41-71 83 83 0 0 1 166 0 83 83 0 0 1-41 71z m375 533h-21v21a42 42 0 0 1-84 0v-21h-21a42 42 0 0 1 0-83h21v-21a42 42 0 0 1 84 0v21h21a42 42 0 0 1 0 83z m-230-125a188 188 0 0 1-375 0v-313a250 250 0 0 1 134-409 292 292 0 0 1 53-7 250 250 0 0 1 188 416z m-83-609a167 167 0 0 0-267 92 167 167 0 0 0 45 156 42 42 0 0 1 13 30v331a104 104 0 0 0 208 0v-331a42 42 0 0 1 13-30 167 167 0 0 0-12-250z" horiz-adv-x="1000" />

<glyph glyph-name="moon-eclipse" unicode="&#xea94;" d="M500 767a417 417 0 0 1-89-10l-5 0a417 417 0 0 1-4-810l5 0a399 399 0 0 1 93-14 417 417 0 0 1 0 834z m-83-739a333 333 0 0 0 0 645 333 333 0 0 0 0-645z m188 6a417 417 0 0 1 0 632 333 333 0 0 0 0-632z" horiz-adv-x="1000" />

<glyph glyph-name="vertical-align-top" unicode="&#xea95;" d="M875 767h-750a42 42 0 0 1 0-84h125v-708a42 42 0 0 1 42-42h250a42 42 0 0 1 41 42v208h125a42 42 0 0 1 42 42v458h125a42 42 0 0 1 0 84z m-375-750h-167v666h167z m167 250h-84v416h84z" horiz-adv-x="1000" />

<glyph glyph-name="cloud-meatball" unicode="&#xea96;" d="M604 187h-32l16 28a42 42 0 0 1-72 41l-16-28-16 28a42 42 0 0 1-72-41l16-28h-32a42 42 0 0 1 0-84h32l-16-27a42 42 0 0 1 72-42l16 28 16-28a42 42 0 0 1 72 42l-16 27h32a42 42 0 0 1 0 84z m164 324a292 292 0 0 1-557-78 167 167 0 0 1-128-163 167 167 0 0 1 140-164l6 0a42 42 0 0 1 7 84 83 83 0 0 0-69 83 83 83 0 0 0 83 83 42 42 0 0 1 42 42 208 208 0 0 0 405 67 42 42 0 0 1 33-27 125 125 0 0 0 25-239 42 42 0 1 1 31-77 208 208 0 0 1-18 392z" horiz-adv-x="1000" />
</font>
</defs>
</svg>
